Torrent Details

Why Cheat India 2019 Hindi 720p PRE-DVDRip x264 AAC
Why Cheat India 2019 Hindi 720p PRE-DVDRip x264 AAC
Size929 MB in 5 files
ReleasesAdded on 01/19/19 at 8:06am into the Movies category by Unknown.
Status30 seeds & 6 peers.
Hash498fcf5e3876196d8cd23bd9a272c16482c87f89
Rating
  • YourBT Visitors

Status This torrent has been verified.
*

Torrent Description

Why Cheat India 2019 Hindi 720p PRE-DVDRip x264 AAC { TaRa }.mkv

========================
General
Complete name : Why Cheat India 2019 Hindi 720p PRE-DVDRip x264 AAC { TaRa }.mkv
Format : Matroska
Format version : Version 4
File size : 929 MiB
Duration : 1 h 55 min
Overall bit rate : 1 124 kb/s========================
Video
ID : 1
Format : AVC
Format/Info : Advanced Video Codec
Format profile : [email protected]
Format settings : CABAC / 8 Ref Frames
Format settings, CABAC : Yes
Format settings, ReFrames : 8 frames
Codec ID : V_MPEG4/ISO/AVC
Duration : 1 h 55 min
Bit rate : 1 024 kb/s
Width : 1 280 pixels
Height : 544 pixels
Display aspect ratio : 2.35:1
Frame rate mode : Constant
Frame rate : 25.000 FPS
Color space : YUV
Chroma subsampling : 4:2:0
Bit depth : 8 bits
Scan type : Progressive
Bits/(Pixel*Frame) : 0.059
Stream size : 848 MiB (91%)
Title : .....::::: TaRa :::::.....
Language : Hindi
Default : Yes
Forced : No========================
Audio
ID : 2
Format : AAC LC SBR
Format/Info : Advanced Audio Codec Low Complexity with Spectral Band Replication
Commercial name : HE-AAC
Format settings : NBC
Codec ID : A_AAC-5
Duration : 1 h 55 min
Bit rate : 96.0 kb/s
Channel(s) : 2 channels
Channel layout : L R
Sampling rate : 48.0 kHz
Frame rate : 23.438 FPS (2048 SPF)
Compression mode : Lossy
Delay relative to video : -105 ms
Stream size : 79.3 MiB (9%)
Title : .....::::: TaRa :::::.....
Language : Hindi
Default : Yes
Forced : No========================




























Similar Torrents

No Similar Torrents Found

If we find similar torrents, we normally show them right here. We couldn't find anything for "".

Torrent Trackers

TRACKER URLSEEDSPEERS
Onlineudp://tracker.pirateparty.gr:6969/announce305
Onlineudp://tracker.coppersurfer.tk:6969/announce286
Onlineudp://tracker.opentrackr.org:1337/announce161
Onlineudp://tracker.zer0day.to:1337/announce101
Onlineudp://tracker.open-internet.nl:6969/announce00

Files inside this torrent

FILENAMESIZE
icon Why Cheat India 2019 Hindi 720p PRE-DVDRip x264 AAC { TaRa }.mkv928.7 MB
icon Torrent TaRa Digital Team.txt639 B
icon Torrent TaRa Digital Team PC Info.nfo6.5 KB
icon Why-Cheat-India.jpg197 KB
icon 8034605272cbbc08d6d516854ec303d8.jpg165.6 KB